Mulher-Maravilha (2017) Dublado e Legendado – Torrent Download | Tyrant saison 1 épisode 5 | Brian Doyle-Murray

Torrent HaHa

Free download any torrents what you need
    New Download Links
    Speed
     kbps
     kbps
     kbps

    Johnny Cash - Come Along And Ride This Train (1991) 4CD Box Bear Family BCD 15563

    Category: Music data: 20-12-2015, 20:24
    Johnny Cash - Come Along And Ride This Train

    Johnny Cash - Come Along And Ride This Train (1991) [4CD Box, Bear Family BCD 15563]
    Country | EAC Rip | Flac(Image) + Cue + Log | MP3 CBR 320Kbps | Covers -> 21 Mb
    Bear Family Records | BCD 15563 | ~1456 + 687 Mb | FileSonic, HotFile

    It's a statement of Johnny Cash's longevity that the eight albums collected here -- each one a concept collection devoted to American historical themes -- were considered worthy and viable commercial releases back when, and that most were very successful. This four-CD set assembles Ride This Train, Blood, Sweat and Tears, Bitter Tears, Ballads of the True West, Mean as Hell! (Johnny Cash Sings Ballads from the True West), America: A 200 Year Salute in Story and Song, From Sea to Shining Sea, and The Rambler, all in one place. They fit together as a body of work, and he put a lot of heart into all of these songs individually. He also engendered a good deal of enmity from members of his core audience of white Southerners, for the sympathies he displayed for the plight of Native Americans on 1964's Bitter Tears. America: A 200 Year Salute is the strongest of the other albums, covering the widest scope and allowing Cash to tie together several singing and songwriting traditions. Cash's two Western-song albums make a natural pairing, as do his two albums of railroad-related songs. The last of the four discs, encompassing From Sea to Shining Sea and The Rambler, is a logical pairing, the latter album being the realistic, somewhat theatrical contemporary equivalent to the former's folk music/history travelogue. Most of the dialogue sequences don't work too well, but the best of the songs come up to Cash's highest standard.

    ~ Bruce Eder, All Music Guide

    Johnny Cash

    Johnny Cash:

    Born: February 26, 1932, Kingsland, AR
    Died: September 12, 2003, Nashville, TN
    Active: '50s, '60s, '70s, '80s, '90s, 2000s
    Genres: Country
    Instrument: Vocals
    Representative Albums: "At Folsom Prison and San Quentin", "Johnny Cash at Folsom Prison", "Columbia Records 1958-1986"
    Representative Songs: "I Walk the Line", "Folsom Prison Blues", "Get Rhythm"

    Johnny Cash was one of the most imposing and influential figures in post-World War II country music. With his deep, resonant baritone and spare, percussive guitar, he had a basic, distinctive sound. Cash didn't sound like Nashville, nor did he sound like honky tonk or rock & roll. He created his own subgenre, falling halfway between the blunt emotional honesty of folk, the rebelliousness of rock & roll, and the world-weariness of country. Cash's career coincided with the birth of rock & roll, and his rebellious attitude and simple, direct musical attack shared a lot of similarities with rock. However, there was a deep sense of history -- as he would later illustrate with his series of historical albums -- that kept him forever tied with country. And he was one of country music's biggest stars of the '50s and '60s, scoring well over 100 hit singles.

    Cash was born and raised in Arkansas, moving to Dyess when he was three. By the time he was 12 years old, he had begun writing his own songs. He was inspired by the country songs he had heard on the radio. While he was in high school, he sang on the Arkansas radio station KLCN. Cash graduated from high school in 1950, moving to Detroit to work in an auto factory for a brief while. With the outbreak of the Korean War, he enlisted in the Air Force. While he was in the Air Force, Cash bought his first guitar and taught himself to play. He began writing songs in earnest, including "Folsom Prison Blues." Cash left the Air Force in 1954, married a Texas woman named Vivian Leberto, and moved to Memphis, where he took a radio announcing course at a broadcasting school on the GI Bill. During the evenings, he played country music in a trio that also consisted of guitarist Luther Perkins and bassist Marshall Grant. The trio occasionally played for free on a local radio station, KWEM, and tried to secure gigs and an audition at Sun Records.

    Cash finally landed an audition with Sun Records and its founder, Sam Phillips, in 1955. Initially, Cash presented himself as a gospel singer, but Phillips turned him down. Phillips asked him to come back with something more commercial. Cash returned with "Hey Porter," which immediately caught Phillips' ear. Soon, Cash released "Cry Cry Cry"/"Hey Porter" as his debut single for Sun. On the single, Phillips billed Cash as "Johnny," which upset the singer because he felt it sounded too young; the record producer also dubbed Perkins and Grant as the Tennessee Two. "Cry Cry Cry" became a success upon its release in 1955, entering the country charts at number 14 and leading to a spot on The Louisiana Hayride, where he stayed for nearly a year. A second single, "Folsom Prison Blues," reached the country Top Five in early 1956 and its follow-up, "I Walk the Line," was number one for six weeks and crossed over into the pop Top 20.

    Cash had an equally successful year in 1957, scoring several country hits including the Top 15 "Give My Love to Rose." Cash also made his Grand Ole Opry debut that year, appearing all in black where the other performers were decked out in flamboyant, rhinestone-studded outfits. Eventually, he earned the nickname of "The Man in Black." Cash became the first Sun artist to release a long-playing album in November of 1957, when Johnny Cash with His Hot and Blue Guitar hit the stores. Cash's success continued to roll throughout 1958, as he earned his biggest hit, "Ballad of a Teenage Queen" (number one for ten weeks), as well another number one single, "Guess Things Happen That Way." For most of 1958, Cash attempted to record a gospel album, but Sun refused to allow him to record one. Sun also was unwilling to increase Cash's record royalties. Both of these were deciding factors in the vocalist's decision to sign with Columbia Records in 1958. By the end of the year, he had released his first single for the label, "All Over Again," which became another Top Five success. Sun continued to release singles and albums of unissued Cash material into the '60s.

    "Don't Take Your Guns to Town," Cash's second single for Columbia, was one of his biggest hits, reaching the top of the country charts and crossing over into the pop charts in the beginning of 1959. Throughout that year, Columbia and Sun singles vied for the top of the charts. Generally, the Columbia releases -- "Frankie's Man Johnny," "I Got Stripes," and "Five Feet High and Rising" -- fared better than the Sun singles, but "Luther Played the Boogie" did climb into the Top Ten. That same year, Cash had the chance to make his gospel record -- Hymns by Johnny Cash -- which kicked off a series of thematic albums that ran into the '70s.

    The Tennessee Two became the Tennessee Three in 1960 with the addition of drummer W.S. Holland. Though he was continuing to have hits, the relentless pace of his career was beginning to take a toll on Cash. In 1959, he had begun taking amphetamines to help him get through his schedule of nearly 300 shows a year. By 1961, his drug intake had increased dramatically and his work was affected, which was reflected by a declining number of hit singles and albums. By 1963, he had moved to New York, leaving his family behind. He was running into trouble with the law, most notably for starting a forest fire out West.

    June Carter -- who was the wife of one of Cash's drinking buddies, Carl Smith -- would provide Cash with his return to the top of the charts with "Ring of Fire," which she co-wrote with Merle Kilgore. "Ring of Fire" spent seven weeks on the top of the charts and was a Top 20 pop hit. Cash continued his success in 1964 as "Understand Your Man" became a number one hit. However, Cash's comeback was short-lived as he sank further into addiction, and his hit singles arrived sporadically. Cash was arrested in El Paso for attempting to smuggle amphetamines into the country through his guitar case in 1965. That same year, the Grand Ole Opry refused to have him perform and he wrecked the establishment's footlights. In 1966, his wife Vivian filed for divorce. After the divorce, Cash moved to Nashville. At first, he was as destructive as he ever had been, but he became close friends with June Carter, who had divorced Carl Smith. With Carter's help, he was able to shake his addictions; she also converted Cash to fundamentalist Christianity. His career began to bounce back as "Jackson" and "Rosanna's Going Wild" became Top Ten hits. Early in 1968, Cash proposed marriage to Carter during a concert; the pair were married that spring.

    Also in 1968, Cash recorded and released his most popular album, Johnny Cash at Folsom Prison. Recorded during a prison concert, the album spawned the number one country hit "Folsom Prison Blues," which also crossed over into the pop charts. By the end of the year, the record had gone gold. The following year, he released a sequel, Johnny Cash at San Quentin, which had his only Top Ten pop single, "A Boy Named Sue," which peaked at number three; it also hit number one on the country charts. Cash guested on Bob Dylan's 1969 country-rock album Nashville Skyline. Dylan returned the favor by appearing on the first episode of The Johnny Cash Show, the singer's television program for ABC. The Johnny Cash Show ran for two years, between 1969 and 1971.

    Cash was reaching a second peak of popularity in 1970. In addition to his television show, he performed for President Richard Nixon at the White House, acted with Kirk Douglas in The Gunfight, sang with John Williams and the Boston Pops Orchestra, and he was the subject of a documentary film. His record sales were equally healthy as "Sunday Morning Coming Down" and "Flesh and Blood" were number one hits. Throughout 1971, Cash continued to have hits, including the Top Three "Man in Black." Both Cash and Carter became more socially active in the early '70s, campaigning for the civil rights of Native Americans and prisoners, as well as frequently working with Billy Graham.

    In the mid-'70s, Cash's presence on the country charts began to decline, but he continued to have a series of minor hits and the occasional chart-topper like 1976's "One Piece at a Time," or Top Ten hits like the Waylon Jennings duet "There Ain't No Good Chain Gang" and "(Ghost) Riders in the Sky." Man in Black, Cash's autobiography, was published in 1975. In 1980, he became the youngest inductee to the Country Music Hall of Fame. However, the '80s were a rough time for Cash as his record sales continued to decline and he ran into trouble with Columbia. Cash, Carl Perkins, and Jerry Lee Lewis teamed up to record The Survivors in 1982, which was a mild success. The Highwaymen -- a band featuring Cash, Waylon Jennings, Willie Nelson, and Kris Kristofferson -- released their first album in 1985, which was also moderately successful. The following year, Cash and Columbia Records ended their relationship and he signed with Mercury Nashville. The new label didn't prove to be a success, as the company and the singer fought over stylistic direction. Furthermore, country radio had begun to favor more contemporary artists, and Cash soon found himself shut out of the charts. Nevertheless, he continued to be a popular concert performer.

    The Highwaymen recorded a second album in 1992, and it was more commercially successful than any of Cash's Mercury records. Around that time, his contract with Mercury ended. In 1993, he signed a contract with American Records. His first album for the label, American Recordings, was produced by the label's founder, Rick Rubin, and was a stark, acoustic collection of songs. American Recordings, while not a blockbuster success, revived his career critically and brought him in touch with a younger, rock-oriented audience. In 1995, the Highwaymen released their third album, The Road Goes on Forever. The following year, Cash released his second album for American Records, Unchained, which featured support from Tom Petty & the Heartbreakers. His VH1 Storytellers outing was released in 1998, and in the spring of 2000, Cash compiled Love, God, Murder, a three-disc retrospective focusing on the major songwriting themes dominant throughout his career. The new studio album American III: Solitary Man appeared later that year.

    Health problems plagued Cash throughout the '90s and into the 2000s, but he continued to record with Rubin; their fourth collaboration, American IV: The Man Comes Around, was released in late 2002. The following year, the Mark Romanek-directed video for his cover of Nine Inch Nails' "Hurt" garnered considerable acclaim and media attention, culminating in an unexpected nomination for video of the year at the MTV Video Music Awards. Not long after the video sparked numerous stories, his beloved wife June Carter Cash died on May 15, 2003, of complications following heart surgery. Four months later, Johnny died of complications from diabetes in Nashville, TN. He was 71. Five months later, the compilation Legend of Johnny Cash became a Top Ten hit. In 2006 Lost Highway released the next-to-last installment of Cash's legendary "American" recordings, American V: A Hundred Highways, from the late singer's last sessions with collaborator Rick Rubin. The final installment form those sessions appeared as American VI: Ain't No Grave, in early 2010, and is reported to be the last of the American Recordings releases.

    ~ Stephen Thomas Erlewine, Rovi


    Johnny Cash - Come Along And Ride This Train (1991):

    Johnny Cash - Come Along And Ride This Train - cd1

    Tracklist Disc 1:

    01 - Johnny Cash - Come Along And Ride This Train
    02 - Johnny Cash - Loading Coal
    03 - Johnny Cash - Slow Rider
    04 - Johnny Cash - The Shifting Whispering Sands (& Lorne Greene)
    05 - Johnny Cash - Lumberjack
    06 - Johnny Cash - Dorraine Of Ponchartrain
    07 - Johnny Cash - Going To Memphis
    08 - Johnny Cash - When Papa Played The Dobro
    09 - Johnny Cash - Boss Jack
    10 - Johnny Cash - Old Doc Brown
    11 - Johnny Cash - The Legend Of John Henry's Hammer
    12 - Johnny Cash - Tell Him I'm Gone
    13 - Johnny Cash - Another Man Done Gone (& Anita Carter)
    14 - Johnny Cash - Casey Jones
    15 - Johnny Cash - Nine Pound Hammer
    16 - Johnny Cash - Chain Gang
    17 - Johnny Cash - Busted
    18 - Johnny Cash - Waiting For A Train
    19 - Johnny Cash - Roughneck
    20 - Johnny Cash - Pick A Bale Of Cotton
    21 - Johnny Cash - Cotton Pickin' Hands

    EAC Log
    Exact Audio Copy V0.99 prebeta 4 from 23. January 2008

    Отчёт EAC об извлечении, выполненном 7. марта 2009, 17:29

    Johnny Cash / Come Along And Ride This Train - Disc 1

    Дисковод: Optiarc DVD RW AD-7203A Adapter: 3 ID: 0

    Режим чтения : Достоверность
    Использование точного потока : Да
    Отключение кэша аудио : Да
    Использование указателей C2 : Нет

    Коррекция смещения при чтении : 48
    Способность читать области Lead-in и Lead-out : Нет
    Заполнение пропущенных сэмплов тишиной : Да
    Удаление блоков с тишиной в начале и конце : Нет
    При вычислениях CRC использовались нулевые сэмплы : Да
    Интерфейс : Установленный внешний ASPI-интерфейс

    Выходной формат : Внутренние WAV-операции
    Формат сэмплов : 44.100 Гц; 16 бит; стерео TOC извлечённого CD

    Трек | Старт | Длительность | Начальный сектор | Конечный сектор
    ---------------------------------------------------------------------
    1 | 0:00.00 | 2:32.52 | 0 | 11451
    2 | 2:32.52 | 5:01.73 | 11452 | 34099
    3 | 7:34.50 | 4:14.60 | 34100 | 53209
    4 | 11:49.35 | 2:32.02 | 53210 | 64611
    5 | 14:21.37 | 3:02.53 | 64612 | 78314
    6 | 17:24.15 | 4:47.05 | 78315 | 99844
    7 | 22:11.20 | 4:19.67 | 99845 | 119336
    8 | 26:31.12 | 2:55.65 | 119337 | 132526
    9 | 29:27.02 | 3:56.73 | 132527 | 150299
    10 | 33:24.00 | 4:15.00 | 150300 | 169424
    11 | 37:39.00 | 8:27.40 | 169425 | 207489
    12 | 46:06.40 | 3:04.57 | 207490 | 221346
    13 | 49:11.22 | 2:37.03 | 221347 | 233124
    14 | 51:48.25 | 3:03.62 | 233125 | 246911
    15 | 54:52.12 | 3:18.73 | 246912 | 261834
    16 | 58:11.10 | 2:41.62 | 261835 | 273971
    17 | 60:52.72 | 2:18.13 | 273972 | 284334
    18 | 63:11.10 | 2:08.30 | 284335 | 293964
    19 | 65:19.40 | 2:13.32 | 293965 | 303971
    20 | 67:32.72 | 1:59.58 | 303972 | 312954
    21 | 69:32.55 | 2:20.72 | 312955 | 323526 Характеристики диапазона извлечения и сообщения об ошибках

    Выбранный диапазон

    Имя файла D:РаздачиJohnny CashCD 1Johnny Cash - Come Along And Ride This Train - Disc 1.wav

    Пиковый уровень 100.0 %
    Качество диапазона 100.0 %
    CRC копии FE7DF153
    Копирование... OK

    Ошибок не произошло


    AccurateRip: сводка

    Трек 1 нет в базе данных
    Трек 2 нет в базе данных
    Трек 3 нет в базе данных
    Трек 4 нет в базе данных
    Трек 5 нет в базе данных
    Трек 6 нет в базе данных
    Трек 7 нет в базе данных
    Трек 8 нет в базе данных
    Трек 9 нет в базе данных
    Трек 10 нет в базе данных
    Трек 11 нет в базе данных
    Трек 12 нет в базе данных
    Трек 13 нет в базе данных
    Трек 14 нет в базе данных
    Трек 15 нет в базе данных
    Трек 16 нет в базе данных
    Трек 17 нет в базе данных
    Трек 18 нет в базе данных
    Трек 19 нет в базе данных
    Трек 20 нет в базе данных
    Трек 21 нет в базе данных

    Ни одного трека нет в базе AccurateRip

    Конец отчёта

    Audiochecker Log
    AUDIOCHECKER v2.0 beta (build 457) - by Dester - [email protected]
    ~~~~~~~~~~~~~~~~~~~~~~~~~~~~~~~~~~
    -=== DO NOT EDIT THIS FILE! ===-

    Path: ...CD 1

    01 -=- Johnny Cash - Come Along And Ride This Train - Disc 1.flac -=- CDDA (100%)

    117017012


    Accurip(CUETools 1.9.5)
    [Verification date: 24.10.2010 15:47:01]
    [Disc ID: 003b26ce-03843da7-2f10d915]
    Disk not present in database.

    Track [ CRC32 ] [W/O NULL] [ LOG ]
    -- [FE7DF153] [A303166F] CRC32
    01 [25A38081] [1AB324F1]
    02 [C536CD0E] [24C79C18]
    03 [90BAAB15] [F8778E23]
    04 [DCA27872] [8113A96E]
    05 [48ED8AEE] [4F0656F2]
    06 [3B1D9F92] [78B58CD8]
    07 [252B8051] [6433078A]
    08 [1AEB2494] [E34AFBCB]
    09 [F9F3E4CC] [0F489499]
    10 [74AFF880] [9C4F7E07]
    11 [E19DCB2E] [873736A5]
    12 [98AF045C] [F4B27FD5]
    13 [CC0ED35C] [13B0432E]
    14 [C089C0F2] [D37792DA]
    15 [DB472BEE] [8B7E2B7D]
    16 [A5C4ECB7] [1715520C]
    17 [83023AB1] [78D4EA33]
    18 [C3D3FA47] [B98FE4A4]
    19 [BD29ECB4] [CE9ED366]
    20 [0A13210E] [B86FCAD7]
    21 [E967BFE1] [2E73C059]

    Johnny Cash - Come Along And Ride This Train - cd2

    Tracklist Disc 2:

    01 - Johnny Cash - Hiawatha's Vision
    02 - Johnny Cash - The Road To Kaintuck
    03 - Johnny Cash - Hammer And Nails (& The Statler Brothers)
    04 - Johnny Cash - The Shifting Whispering Sands, Part 1
    05 - Johnny Cash - The Ballad Of Boot Hill
    06 - Johnny Cash - I Ride An Old Paint
    07 - Johnny Cash - Hardin Wouldn't Run
    08 - Johnny Cash - Mr. Garfield
    09 - Johnny Cash - The Streets Of Laredo
    10 - Johnny Cash - Johnny Reb
    11 - Johnny Cash - A Letter From Home
    12 - Johnny Cash - Bury Me Not On The Lone Prairie
    13 - Johnny Cash - Mean As Hell
    14 - Johnny Cash - Sam Hall
    15 - Johnny Cash - 25 Minutes To Go
    16 - Johnny Cash - The Blizzard
    17 - Johnny Cash - Sweet Betsy From Pike
    18 - Johnny Cash - Green Grow The Lilacs
    19 - Johnny Cash - Rodeo Hand
    20 - Johnny Cash - Stampede
    21 - Johnny Cash - The Shifting Whispering Sands, Part 2
    22 - Johnny Cash - Remember The Alamo

    EAC Log
    Exact Audio Copy V0.99 prebeta 4 from 23. January 2008

    Отчёт EAC об извлечении, выполненном 7. марта 2009, 17:50

    Johnny Cash / Come Along And Ride This Train - Disc 2

    Дисковод: Optiarc DVD RW AD-7203A Adapter: 3 ID: 0

    Режим чтения : Достоверность
    Использование точного потока : Да
    Отключение кэша аудио : Да
    Использование указателей C2 : Нет

    Коррекция смещения при чтении : 48
    Способность читать области Lead-in и Lead-out : Нет
    Заполнение пропущенных сэмплов тишиной : Да
    Удаление блоков с тишиной в начале и конце : Нет
    При вычислениях CRC использовались нулевые сэмплы : Да
    Интерфейс : Установленный внешний ASPI-интерфейс

    Выходной формат : Внутренние WAV-операции
    Формат сэмплов : 44.100 Гц; 16 бит; стерео TOC извлечённого CD

    Трек | Старт | Длительность | Начальный сектор | Конечный сектор
    ---------------------------------------------------------------------
    1 | 0:00.00 | 2:25.50 | 0 | 10924
    2 | 2:25.50 | 2:43.35 | 10925 | 23184
    3 | 5:09.10 | 2:40.10 | 23185 | 35194
    4 | 7:49.20 | 2:55.07 | 35195 | 48326
    5 | 10:44.27 | 3:49.18 | 48327 | 65519
    6 | 14:33.45 | 2:58.35 | 65520 | 78904
    7 | 17:32.05 | 4:19.62 | 78905 | 98391
    8 | 21:51.67 | 4:36.58 | 98392 | 119149
    9 | 26:28.50 | 3:39.52 | 119150 | 135626
    10 | 30:08.27 | 2:51.30 | 135627 | 148481
    11 | 32:59.57 | 2:36.45 | 148482 | 160226
    12 | 35:36.27 | 2:26.30 | 160227 | 171206
    13 | 38:02.57 | 3:08.23 | 171207 | 185329
    14 | 41:11.05 | 3:15.60 | 185330 | 200014
    15 | 44:26.65 | 3:13.37 | 200015 | 214526
    16 | 47:40.27 | 3:54.20 | 214527 | 232096
    17 | 51:34.47 | 3:58.15 | 232097 | 249961
    18 | 55:32.62 | 2:46.65 | 249962 | 262476
    19 | 58:19.52 | 2:26.20 | 262477 | 273446
    20 | 60:45.72 | 4:00.40 | 273447 | 291486
    21 | 64:46.37 | 2:29.03 | 291487 | 302664
    22 | 67:15.40 | 2:48.72 | 302665 | 315336
    23 | 70:04.37 | 2:44.40 | 315337 | 327676 Характеристики диапазона извлечения и сообщения об ошибках

    Выбранный диапазон

    Имя файла D:РаздачиJohnny CashCd 2Johnny Cash - Come Along And Ride This Train - Disc 2.wav

    Пиковый уровень 98.2 %
    Качество диапазона 100.0 %
    CRC копии 1CA91C43
    Копирование... OK

    Ошибок не произошло


    AccurateRip: сводка

    Трек 1 нет в базе данных
    Трек 2 нет в базе данных
    Трек 3 нет в базе данных
    Трек 4 нет в базе данных
    Трек 5 нет в базе данных
    Трек 6 нет в базе данных
    Трек 7 нет в базе данных
    Трек 8 нет в базе данных
    Трек 9 нет в базе данных
    Трек 10 нет в базе данных
    Трек 11 нет в базе данных
    Трек 12 нет в базе данных
    Трек 13 нет в базе данных
    Трек 14 нет в базе данных
    Трек 15 точность не определена (достоверность 1) [C7F74F69], AccurateRip вернул [1B4F8CD8]
    Трек 16 нет в базе данных
    Трек 17 нет в базе данных
    Трек 18 нет в базе данных
    Трек 19 нет в базе данных
    Трек 20 нет в базе данных
    Трек 21 нет в базе данных
    Трек 22 нет в базе данных
    Трек 23 нет в базе данных

    1 трек(и) не удалось проверить на точность
    22 трек(и) не содержатся в базе AccurateRip

    Ни один трек не прошёл проверки на точность
    В вашей базе может быть иной вариант штамповки диска

    Конец отчёта

    Audiochecker Log
    AUDIOCHECKER v2.0 beta (build 457) - by Dester - [email protected]
    ~~~~~~~~~~~~~~~~~~~~~~~~~~~~~~~~~~
    -=== DO NOT EDIT THIS FILE! ===-

    Path: ...Cd 2

    01 -=- Johnny Cash - Come Along And Ride This Train - Disc 2.flac -=- CDDA (100%)

    117029300

    Accurip(CUETools 1.9.5)
    [Verification date: 24.10.2010 15:48:06]
    [Disc ID: 003c4653-03f2c53a-49111117]
    Track [ CRC ] Status
    01 [8b382f40] (00/00) No matches
    02 [299c0b6a] (00/00) No matches
    03 [9a0696a9] (00/00) No matches
    04 [871f4ef3] (00/00) No matches
    05 [ef37cc7b] (00/00) No matches
    06 [4f5585fd] (00/00) No matches
    07 [a189f905] (00/00) No matches
    08 [b7c50764] (00/00) No matches
    09 [c014baec] (00/00) No matches
    10 [9ad5de75] (00/00) No matches
    11 [e7d55418] (00/00) No matches
    12 [ab8d8367] (00/00) No matches
    13 [78535ce9] (00/00) No matches
    14 [a4c9e6b1] (00/00) No matches
    15 [c7f74f69] (00/00) No matches
    16 [420f78e6] (00/00) No matches
    17 [616960f0] (00/00) No matches
    18 [991fe8bb] (00/00) No matches
    19 [695d7afb] (00/00) No matches
    20 [f47755d2] (00/00) No matches
    21 [632dbdea] (00/00) No matches
    22 [a47481f2] (00/00) No matches
    23 [b0f1436b] (00/00) No matches
    Offsetted by 2081:
    01 [525717a2] (00/00) No matches
    02 [fd185979] (00/00) No matches
    03 [f9247974] (00/00) No matches
    04 [66e09662] (00/00) No matches
    05 [43cbea28] (00/00) No matches
    06 [15d14755] (00/00) No matches
    07 [212c5199] (00/00) No matches
    08 [a78ad744] (00/00) No matches
    09 [5dcd6d3d] (00/00) No matches
    10 [9b866766] (00/00) No matches
    11 [5f1de3f7] (00/00) No matches
    12 [f7dd0f86] (00/00) No matches
    13 [4edcf601] (00/00) No matches
    14 [382f043c] (00/00) No matches
    15 [8d968ba9] (00/00) No matches
    16 [a7b9d763] (00/00) No matches
    17 [437a609c] (00/00) No matches
    18 [6e1374a0] (00/00) No matches
    19 [7fa6576d] (00/00) No matches
    20 [0df5a99a] (00/00) No matches
    21 [32e8b6af] (00/00) No matches
    22 [abd3772c] (00/00) No matches
    23 [9bb39f4e] (00/00) No matches

    Track [ CRC32 ] [W/O NULL] [ LOG ]
    -- [1CA91C43] [303A9A49] CRC32
    01 [95AF328E] [F681C5C9]
    02 [7EA5E07C] [25C092C7]
    03 [2F537841] [81D846F2]
    04 [F61DB828] [10541991]
    05 [29895C40] [4BCAFE16]
    06 [0E28A76F] [33476880]
    07 [FBE83175] [CA45CA74]
    08 [7CB21BE9] [81920B14]
    09 [7CB824D3] [421DCB40]
    10 [98237B3E] [7D26524B]
    11 [320D771B] [29429217]
    12 [595769F2] [6C60839A]
    13 [AB0BA52F] [D11BE489]
    14 [8976FAE6] [124EA3BD]
    15 [78ED4112] [025E7509]
    16 [ED664881] [CC556D71]
    17 [4F0D5DA7] [D3EBD3C9]
    18 [56690C62] [6027297B]
    19 [9B080650] [5ABB6759]
    20 [1ADB857E] [605B272A]
    21 [33EE598D] [47FCBF6E]
    22 [799EDBE1] [E7C36D5F]
    23 [3A027031] [A5A8028B]

    Johnny Cash - Come Along And Ride This Train - cd3

    Tracklist Disc 3:

    01 - Johnny Cash - Intro - Big Foot
    02 - Johnny Cash - As Long As The Grass Shall Grow
    03 - Johnny Cash - Apache Tears
    04 - Johnny Cash - Custer
    05 - Johnny Cash - The Talking Leaves
    06 - Johnny Cash - The Ballad Of Ira Hayes
    07 - Johnny Cash - Drums
    08 - Johnny Cash - White Girl
    09 - Johnny Cash - Old Apache Squaw
    10 - Johnny Cash - The Vanishing Race
    11 - Johnny Cash - Open Dialogue
    12 - Johnny Cash - Paul Revere
    13 - Johnny Cash - Begin West Movement
    14 - Johnny Cash - The Road To Kaintuck
    15 - Johnny Cash - To The Shining Mountains
    16 - Johnny Cash - The Battle Of New Orleans
    17 - Johnny Cash - Southwestward
    18 - Johnny Cash - Remember The Alamo
    19 - Johnny Cash - Opening The West
    20 - Johnny Cash - Lorena
    21 - Johnny Cash - The Gettysburg Address
    22 - Johnny Cash - The West
    23 - Johnny Cash - Big Foot
    24 - Johnny Cash - Like A Young Colt
    25 - Johnny Cash - Mr. Garfield
    26 - Johnny Cash - A Proud Land
    27 - Johnny Cash - The Big Battle
    28 - Johnny Cash - On Wheels And Wings
    29 - Johnny Cash - Come Take A Trip On My Airship
    30 - Johnny Cash - Reaching For The Stars
    31 - Johnny Cash - These Are My People
    23 - Johnny Cash – Reflections

    EAC Log
    Exact Audio Copy V0.99 prebeta 4 from 23. January 2008

    Отчёт EAC об извлечении, выполненном 7. марта 2009, 18:09

    Johnny Cash / Come Along And Ride This Train - Disc 3

    Дисковод: Optiarc DVD RW AD-7203A Adapter: 3 ID: 0

    Режим чтения : Достоверность
    Использование точного потока : Да
    Отключение кэша аудио : Да
    Использование указателей C2 : Нет

    Коррекция смещения при чтении : 48
    Способность читать области Lead-in и Lead-out : Нет
    Заполнение пропущенных сэмплов тишиной : Да
    Удаление блоков с тишиной в начале и конце : Нет
    При вычислениях CRC использовались нулевые сэмплы : Да
    Интерфейс : Установленный внешний ASPI-интерфейс

    Выходной формат : Внутренние WAV-операции
    Формат сэмплов : 44.100 Гц; 16 бит; стерео TOC извлечённого CD

    Трек | Старт | Длительность | Начальный сектор | Конечный сектор
    ---------------------------------------------------------------------
    1 | 0:00.00 | 2:49.37 | 0 | 12711
    2 | 2:49.37 | 6:10.43 | 12712 | 40504
    3 | 9:00.05 | 2:37.12 | 40505 | 52291
    4 | 11:37.17 | 2:22.43 | 52292 | 62984
    5 | 13:59.60 | 3:57.22 | 62985 | 80781
    6 | 17:57.07 | 4:10.35 | 80782 | 99566
    7 | 22:07.42 | 5:05.23 | 99567 | 122464
    8 | 27:12.65 | 3:03.10 | 122465 | 136199
    9 | 30:16.00 | 1:42.52 | 136200 | 143901
    10 | 31:58.52 | 4:06.00 | 143902 | 162351
    11 | 36:04.52 | 0:23.35 | 162352 | 164111
    12 | 36:28.12 | 2:17.68 | 164112 | 174454
    13 | 38:46.05 | 0:26.45 | 174455 | 176449
    14 | 39:12.50 | 1:21.67 | 176450 | 182591
    15 | 40:34.42 | 0:48.53 | 182592 | 186244
    16 | 41:23.20 | 2:21.32 | 186245 | 196851
    17 | 43:44.52 | 0:37.48 | 196852 | 199674
    18 | 44:22.25 | 2:26.62 | 199675 | 210686
    19 | 46:49.12 | 0:54.18 | 210687 | 214754
    20 | 47:43.30 | 1:52.00 | 214755 | 223154
    21 | 49:35.30 | 2:38.00 | 223155 | 235004
    22 | 52:13.30 | 0:57.50 | 235005 | 239329
    23 | 53:11.05 | 3:02.07 | 239330 | 252986
    24 | 56:13.12 | 0:38.30 | 252987 | 255866
    25 | 56:51.42 | 3:53.53 | 255867 | 273394
    26 | 60:45.20 | 0:24.67 | 273395 | 275261
    27 | 61:10.12 | 3:05.33 | 275262 | 289169
    28 | 64:15.45 | 0:30.67 | 289170 | 291486
    29 | 64:46.37 | 1:05.50 | 291487 | 296411
    30 | 65:52.12 | 0:41.55 | 296412 | 299541
    31 | 66:33.67 | 2:36.35 | 299542 | 311276 Характеристики диапазона извлечения и сообщения об ошибках

    Выбранный диапазон

    Имя файла D:РаздачиJohnny CashCD 3Johnny Cash - Come Along And Ride This Train - Disc 3.wav

    Пиковый уровень 97.1 %
    Качество диапазона 100.0 %
    CRC копии 3E82EA67
    Копирование... OK

    Ошибок не произошло


    AccurateRip: сводка

    Трек 1 нет в базе данных
    Трек 2 нет в базе данных
    Трек 3 нет в базе данных
    Трек 4 нет в базе данных
    Трек 5 нет в базе данных
    Трек 6 нет в базе данных
    Трек 7 нет в базе данных
    Трек 8 нет в базе данных
    Трек 9 нет в базе данных
    Трек 10 нет в базе данных
    Трек 11 нет в базе данных
    Трек 12 нет в базе данных
    Трек 13 нет в базе данных
    Трек 14 нет в базе данных
    Трек 15 нет в базе данных
    Трек 16 нет в базе данных
    Трек 17 нет в базе данных
    Трек 18 нет в базе данных
    Трек 19 нет в базе данных
    Трек 20 нет в базе данных
    Трек 21 нет в базе данных
    Трек 22 нет в базе данных
    Трек 23 нет в базе данных
    Трек 24 нет в базе данных
    Трек 25 нет в базе данных
    Трек 26 нет в базе данных
    Трек 27 нет в базе данных
    Трек 28 нет в базе данных
    Трек 29 нет в базе данных
    Трек 30 нет в базе данных
    Трек 31 нет в базе данных

    Ни одного трека нет в базе AccurateRip

    Конец отчёта

    Audiochecker Log
    AUDIOCHECKER v2.0 beta (build 457) - by Dester - [email protected]
    ~~~~~~~~~~~~~~~~~~~~~~~~~~~~~~~~~~
    -=== DO NOT EDIT THIS FILE! ===-

    Path: ...CD 3

    01 -=- Johnny Cash - Come Along And Ride This Train - Disc 3.flac -=- CDDA (100%)

    117025204

    Accurip(CUETools 1.9.5)
    [Verification date: 24.10.2010 15:49:27]
    [Disc ID: 0059744a-0745ad27-fe10361f]
    Disk not present in database.

    Track [ CRC32 ] [W/O NULL] [ LOG ]
    -- [3E82EA67] [4B349FD7] CRC32
    01 [34CF9BD3] [A848DA29]
    02 [AC0D9850] [EE442177]
    03 [579D9F19] [E57EF319]
    04 [AEF7D906] [8D7C8D01]
    05 [632A1B35] [15ED6703]
    06 [239A8A12] [DBC0B3BF]
    07 [26974EF9] [5FC35ED3]
    08 [F6CC12C6] [071ED91C]
    09 [BF9CEA1B] [142543A8]
    10 [CC434D92] [FCF37051]
    11 [D6725527] [CCAC97FC]
    12 [FE31CACB] [6F191AE8]
    13 [98639F06] [6CACBBE9]
    14 [8FDA4BAC] [D89EF480]
    15 [F4511CBC] [F972AA6C]
    16 [A88468EB] [87A315F5]
    17 [4F89A66F] [6D31CA78]
    18 [BF82BC6F] [0286520E]
    19 [6D04607A] [D66B455E]
    20 [9D89FF03] [04605751]
    21 [2E44ACAE] [A81140CA]
    22 [55A66E12] [D86148AA]
    23 [03A6C40F] [381BBD0D]
    24 [FD61FE7C] [EE3CD710]
    25 [103AB8CE] [646AD10E]
    26 [0148C107] [94737033]
    27 [414FB672] [34368B2D]
    28 [C7964A60] [6171F302]
    29 [C8DE8C9B] [8FF3F612]
    30 [72B3A166] [0A186059]
    31 [F34ECC78] [B50CD1BB]

    Johnny Cash - Come Along And Ride This Train - cd4

    Tracklist Disc 4:

    01 - Johnny Cash - From Sea To Shining Sea
    02 - Johnny Cash - The Whirl And The Suck
    03 - Johnny Cash - Call Daddy From The Mines
    04 - Johnny Cash - THe Frozen Four Hundred Pound Fair To Middlin' Cotton Picker
    05 - Johnny Cash - The Walls Of A Prison
    06 - Johnny Cash - The Masterpiece
    07 - Johnny Cash - You And Tennessee
    08 - Johnny Cash - She Came From The Mountains
    09 - Johnny Cash - Another Song To Sing
    10 - Johnny Cash - The Flint Arrowhead
    11 - Johnny Cash - Cisco Clifton's Fillin' Station
    12 - Johnny Cash - Shrimpin' Sailin'
    13 - Johnny Cash - From Sea To Shining Sea
    14 - Johnny Cash - Hit The Road And Go
    15 - Johnny Cash - Dialogue #1
    16 - Johnny Cash - If It Wasn't For The Wabash River
    17 - Johnny Cash - Dialogue #2
    18 - Johnny Cash - Lady
    19 - Johnny Cash - Dialogue #3
    20 - Johnny Cash - After The Ball
    21 - Johnny Cash - Dialogue #4
    22 - Johnny Cash - No Earthly Good
    23 - Johnny Cash - Dialogue #5
    24 - Johnny Cash - A Wednesday Car
    25 - Johnny Cash - Dialogue #6
    26 - Johnny Cash - My Cowboys Last Ride
    27 - Johnny Cash - Dialogue #7
    28 - Johnny Cash - Calilou
    29 - Johnny Cash - Dialogue #8
    30 - Johnny Cash - Come Along And Ride This Tr

    EAC Log
    Exact Audio Copy V0.99 prebeta 4 from 23. January 2008

    Отчёт EAC об извлечении, выполненном 7. марта 2009, 18:31

    Johnny Cash / Come Along And Ride This Train - Disc 4

    Дисковод: Optiarc DVD RW AD-7203A Adapter: 3 ID: 0

    Режим чтения : Достоверность
    Использование точного потока : Да
    Отключение кэша аудио : Да
    Использование указателей C2 : Нет

    Коррекция смещения при чтении : 48
    Способность читать области Lead-in и Lead-out : Нет
    Заполнение пропущенных сэмплов тишиной : Да
    Удаление блоков с тишиной в начале и конце : Нет
    При вычислениях CRC использовались нулевые сэмплы : Да
    Интерфейс : Установленный внешний ASPI-интерфейс

    Выходной формат : Внутренние WAV-операции
    Формат сэмплов : 44.100 Гц; 16 бит; стерео TOC извлечённого CD

    Трек | Старт | Длительность | Начальный сектор | Конечный сектор
    ---------------------------------------------------------------------
    1 | 0:00.00 | 1:38.15 | 0 | 7364
    2 | 1:38.15 | 3:07.27 | 7365 | 21416
    3 | 4:45.42 | 3:03.63 | 21417 | 35204
    4 | 7:49.30 | 2:32.50 | 35205 | 46654
    5 | 10:22.05 | 4:01.10 | 46655 | 64739
    6 | 14:23.15 | 2:47.15 | 64740 | 77279
    7 | 17:10.30 | 3:08.05 | 77280 | 91384
    8 | 20:18.35 | 4:59.17 | 91385 | 113826
    9 | 25:17.52 | 2:00.28 | 113827 | 122854
    10 | 27:18.05 | 2:56.45 | 122855 | 136099
    11 | 30:14.50 | 2:42.60 | 136100 | 148309
    12 | 32:57.35 | 3:06.15 | 148310 | 162274
    13 | 36:03.50 | 0:57.02 | 162275 | 166551
    14 | 37:00.52 | 2:35.30 | 166552 | 178206
    15 | 39:36.07 | 2:33.33 | 178207 | 189714
    16 | 42:09.40 | 2:09.67 | 189715 | 199456
    17 | 44:19.32 | 2:22.33 | 199457 | 210139
    18 | 46:41.65 | 2:48.07 | 210140 | 222746
    19 | 49:29.72 | 2:27.33 | 222747 | 233804
    20 | 51:57.30 | 2:48.27 | 233805 | 246431
    21 | 54:45.57 | 2:02.15 | 246432 | 255596
    22 | 56:47.72 | 2:46.00 | 255597 | 268046
    23 | 59:33.72 | 1:51.45 | 268047 | 276416
    24 | 61:25.42 | 2:12.60 | 276417 | 286376
    25 | 63:38.27 | 0:55.03 | 286377 | 290504
    26 | 64:33.30 | 2:29.50 | 290505 | 301729
    27 | 67:03.05 | 2:48.32 | 301730 | 314361
    28 | 69:51.37 | 3:20.05 | 314362 | 329366
    29 | 73:11.42 | 1:24.13 | 329367 | 335679
    30 | 74:35.55 | 2:28.07 | 335680 | 346786 Характеристики диапазона извлечения и сообщения об ошибках

    Выбранный диапазон

    Имя файла D:РаздачиJohnny CashCD 4Johnny Cash - Come Along And Ride This Train - Disc 4.wav

    Пиковый уровень 99.3 %
    Качество диапазона 100.0 %
    CRC копии B2C96A35
    Копирование... OK

    Ошибок не произошло


    AccurateRip: сводка

    Трек 1 нет в базе данных
    Трек 2 нет в базе данных
    Трек 3 нет в базе данных
    Трек 4 нет в базе данных
    Трек 5 нет в базе данных
    Трек 6 нет в базе данных
    Трек 7 нет в базе данных
    Трек 8 нет в базе данных
    Трек 9 нет в базе данных
    Трек 10 нет в базе данных
    Трек 11 нет в базе данных
    Трек 12 нет в базе данных
    Трек 13 нет в базе данных
    Трек 14 нет в базе данных
    Трек 15 нет в базе данных
    Трек 16 нет в базе данных
    Трек 17 нет в базе данных
    Трек 18 нет в базе данных
    Трек 19 нет в базе данных
    Трек 20 нет в базе данных
    Трек 21 нет в базе данных
    Трек 22 нет в базе данных
    Трек 23 нет в базе данных
    Трек 24 нет в базе данных
    Трек 25 нет в базе данных
    Трек 26 нет в базе данных
    Трек 27 нет в базе данных
    Трек 28 нет в базе данных
    Трек 29 нет в базе данных
    Трек 30 нет в базе данных

    Ни одного трека нет в базе AccurateRip

    Конец отчёта

    Audiochecker Log
    AUDIOCHECKER v2.0 beta (build 457) - by Dester - [email protected]
    ~~~~~~~~~~~~~~~~~~~~~~~~~~~~~~~~~~
    -=== DO NOT EDIT THIS FILE! ===-

    Path: ...CD 4

    01 -=- Johnny Cash - Come Along And Ride This Train - Disc 4.flac -=- CDDA (100%)

    117037492

    Accurip(CUETools 1.9.5)
    [Verification date: 24.10.2010 15:51:00]
    [Disc ID: 0056a8ea-071f8410-bb120f1e]
    Track [ CRC ] Status
    01 [fe8a075e] (02/02) Accurately ripped as in pressing(s) #1
    02 [e286d208] (02/02) Accurately ripped as in pressing(s) #1
    03 [bf0c7711] (02/02) Accurately ripped as in pressing(s) #1
    04 [a13c0161] (02/02) Accurately ripped as in pressing(s) #1
    05 [692ed10a] (02/02) Accurately ripped as in pressing(s) #1
    06 [54c67d43] (02/02) Accurately ripped as in pressing(s) #1
    07 [26126093] (02/02) Accurately ripped as in pressing(s) #1
    08 [1dc35de6] (02/02) Accurately ripped as in pressing(s) #1
    09 [0c19b176] (02/02) Accurately ripped as in pressing(s) #1
    10 [2df4d048] (02/02) Accurately ripped as in pressing(s) #1
    11 [6f33241a] (02/02) Accurately ripped as in pressing(s) #1
    12 [1ca124e0] (02/02) Accurately ripped as in pressing(s) #1
    13 [1a550dd4] (02/02) Accurately ripped as in pressing(s) #1
    14 [a65eed37] (02/02) Accurately ripped as in pressing(s) #1
    15 [67ef838c] (02/02) Accurately ripped as in pressing(s) #1
    16 [98c0e8ab] (02/02) Accurately ripped as in pressing(s) #1
    17 [a7f58231] (02/02) Accurately ripped as in pressing(s) #1
    18 [f766f47d] (02/02) Accurately ripped as in pressing(s) #1
    19 [9a5bf0de] (02/02) Accurately ripped as in pressing(s) #1
    20 [9d7e3edc] (02/02) Accurately ripped as in pressing(s) #1
    21 [49f19045] (02/02) Accurately ripped as in pressing(s) #1
    22 [e859c0e2] (02/02) Accurately ripped as in pressing(s) #1
    23 [756fbdd1] (02/02) Accurately ripped as in pressing(s) #1
    24 [5367f4e7] (02/02) Accurately ripped as in pressing(s) #1
    25 [87724c09] (02/02) Accurately ripped as in pressing(s) #1
    26 [e9fc89cc] (02/02) Accurately ripped as in pressing(s) #1
    27 [bbbd55bc] (02/02) Accurately ripped as in pressing(s) #1
    28 [1fc66992] (02/02) Accurately ripped as in pressing(s) #1
    29 [974fda0c] (02/02) Accurately ripped as in pressing(s) #1
    30 [3b9a117b] (02/02) Accurately ripped as in pressing(s) #1

    Track [ CRC32 ] [W/O NULL] [ LOG ]
    -- [B2C96A35] [97D09BDA] CRC32
    01 [2E08055C] [46E65015]
    02 [8E8F3D9C] [4C41C73A]
    03 [4A8E0B2C] [5F6DB8C8]
    04 [D108DFBF] [CC8A9440]
    05 [A04C3F9B] [410107E0]
    06 [CE192EEC] [6F2D1C27]
    07 [32E3DC4A] [A6168338]
    08 [5F9A0736] [8D638386]
    09 [47A3B894] [DD944F21]
    10 [EFD0C12F] [19835CD2]
    11 [0D71323A] [E6FA62F2]
    12 [B8FE1645] [79473E39]
    13 [3CD8E380] [461F18DE]
    14 [D4F9A1A8] [AD4C694C]
    15 [EA18D666] [71926B11]
    16 [8F4C602D] [5255F5BC]
    17 [93CC2E9B] [20062F10]
    18 [3AF9DBCD] [ECE0AAFE]
    19 [D5B8E59A] [396B2FD1]
    20 [0E7E009C] [ACED960C]
    21 [B00DCB8A] [38250166]
    22 [7C15861F] [94B4E817]
    23 [0DD3DAC4] [ED710A6C]
    24 [4F25D96A] [C3352AF9]
    25 [016ECE41] [4AA933CB]
    26 [B766A10D] [F2B1E171]
    27 [FD12AC0D] [131523CE]
    28 [2E1E782F] [0DD23036]
    29 [FB5262E2] [DA40A05B]
    30 [33D02DCF] [72563FC8]


    Download Johnny Cash - Come Along And Ride This Train (1991):

    HotFile
    FileSonic

    In case you encounter dead links, please send me a private message.

    All thanks go to sinicinal


    Free Full Download Johnny Cash - Come Along And Ride form MediaFire.com link RapidShare, Uploaded.to, Zippyshare, FileSonic, turbobit.net, ul.to, ORON, DepositFiles, rapidgator.net, letitbit.net, extabit.com, filefactory.com. Johnny Cash - Come Along And Ride This Train (1991) 4CD Box Bear Family BCD 15563 Torrent Download with keygen, crack, serial, 1080p, hdrip, 720p, 2015, 2016

    Eric Sardinas - Black Pearls (2003) JVC VICP-62371


    Eric Sardinas - Black Pearls (2003)
    EAC Rip | FLAC (Img) + Cue + Log ~ 415 Mb | MP3 CBR320 ~ 148 Mb
    Scans Included (JPG, 600 dpi) | RAR 5% Recovery
    Hard Rock, Blues Rock, Modern Electric Blues | JVC #VICP-62371
    “Eric Sardinas is an American blues-rock slide guitarist born in Fort Lauderdale, Florida. He is noted for his use of the electric resonator guitar and his...

    John Verity - Tone Hound On The Last Train To Corona (2014)


    John Verity - Tone Hound On The Last Train To Corona (2014)
    EAC Rip | FLAC (Img) + Cue + Log ~ 332 Mb | MP3 CBR320 ~ 122 Mb
    Scans Included (JPG, 600 dpi) | RAR 5% Recovery
    Blues-Rock, Classic Rock | VaVoom Records #888174705927
    “John Verity has had a varied and amazing career to date, including support dates with rock luminaries such as Jimi Hendrix, Janis Joplin,...

    B.B. King - Spotlight On Lucille (1986) Reissue 1991


    B.B. King - Spotlight On Lucille (1986)
    EAC | FLAC | Image (Cue&Log) ~ 294 Mb (incl 5%) | Mp3 (CBR320) ~ 118 Mb (incl 5%) | Scans included
    Genre: Electric Blues, Soul-Blues, Memphis Blues | Label: Flair/Virgin America | # 0777 7 86231 2 0 | Time: 00:43:01
    “B.B. King is the most influential guitarist in the instrument's electric history. His string-bending,...

    Johnny Dowd - Thats Your Wife on the Back of My Horse (2015)


    Johnny Dowd - That's Your Wife on the Back of My Horse
    Alt-Country, Americana | MP3 CBR 320 kbps | 45:26 min | 112 MB + 5% Recovery
    Label: Mother Jinx Records | Tracks: 14 | Rls.date: 2015
    Time to dig out the bunting and start baking those celebratory cakes, the master of the absurd Ithaca's brightest, exploratory mind, Johnny Dowd, returns with a new album,...

    Gregorian - Masters Of Chant Chapter II (2001) (Japan Edition)


    Gregorian - Masters Of Chant Chapter II (2001) (Japan Edition)
    New Age | 1cd | EAC Rip | Flac + Cue + Log | covers
    Edel/Network Records, NXCB-00030 | rel: 2001 | 730Mb
    Gregorian is a German band headed by Frank Peterson that performs Gregorian chant-inspired versions of modern pop and rock songs. The band features both vocal harmony and instrumental accompaniment. Originally,...

    Johnny Winter - Setlist: The Very Best Of Johnny Winter Live (2011/2013)


    Johnny Winter - Setlist: The Very Best Of Johnny Winter Live (2011/2013)
    EAC | FLAC | Image (Cue&Log) ~ 559 Mb (incl 5%) | Mp3 (CBR320/Stereo) ~ 229 Mb (incl 5%) | Scans included
    Genre: Blues Rock, Blues | Label: Sony Music | # 88883722802 | Time: 01:11:43
    “With a fast, gritty, and furious slide and electric guitar style, Johnny Winter fused the blues to its rock...

    Frankie Laine - I Believe (Boxed Set 6CD) (2001)


    Frankie Laine - I Believe (Boxed Set 6CD) (2001)
    MP3 CBR 256kbps | Label: Bear Family, Germany | Release: 2001 | 217:34 min | 626 MB
    Genre: Jazz, Easy Listening, Vocal, Contemporary Blues
    “The 2nd part of Bear Family's Complete Frankie Laine career retrospective follows the great singer and his producer, Mitch Miller, to Columbia Records, where they went together...

    Johnny Mastro & Mamas Boys - Lukes Dream (2012)


    Johnny Mastro & Mama's Boys - Luke's Dream (2012)
    EAC Rip | FLAC (image+.cue+log) - 401 MB | MP3 CBR 320 kbps (LAME 3.93) - 146 MB | Covers included
    Genre: Blues | RAR 3% Rec. | Label: Rip Cat Records (RIC 1109)
    “Johnny Mastro And The Mama's Boys follow up their genre stretching Beautiful Chaos with a step further on down the path of experimental...

    Add comment
    Try to express their thoughts correctly and succinctly


Bryan Adams - Discography (1979-2015)
Bryan Adams - Discography 1979-2015 (28 Albums, 52CD+23 Singles) Genre: Rock ||
VA - Masterpieces of Chillout (2015)
Masterpieces of Chillout (2015) Label: Jizoom | Genre: Downtempo, Chillout,
Barrett Baber - The Complete Season 9 Collection (The Voice
Release Name: Barrett Baber - The Complete Season 9 Collection (The Voice
John Williams - Star Wars: The Force Awakens - Original Motion
John Williams - Star Wars: The Force Awakens - Original Motion Picture
The Amazon Copywriting Bible: Convert Better. Sell More. Rank
The Amazon Copywriting Bible: Convert Better. Sell More. Rank Higher. by Matt
Learning React: Functional Web Development with React and Redux
Learning React: Functional Web Development with React and Redux by Alex Banks
Chemistry: A Molecular Approach, Global Edition
Chemistry: A Molecular Approach, Global Edition by Nivaldo J. Tro English |
Pro ASP.NET Core MVC, 6th Edition
Pro ASP.NET Core MVC, 6th Edition ADAM FREEMAN | 2016 | EPUB, True PDF | ISBN:
PhotoSerge Lightroom Presets Collection Vol. 1-8 Bundle 170917
PhotoSerge Lightroom Presets Collection Vol. 1-8 Bundle 170917 PhotoSerge
Solid PDF Tools 9.1.5565.760 Multilingual 170917
Solid PDF Tools 9.1.5565.760 Multilingual 170917 Solid PDF Tools
iMobie AnyTrans 4.2.9.20150129 Multilingual | MacOSX 170917
iMobie AnyTrans 4.2.9.20150129 Multilingual | MacOSX 170917 iMobie AnyTrans
Password Recovery Bundle 2015 Enterprise v3.5 + Serial 170917
Password Recovery Bundle 2015 Enterprise v3.5 + Serial 170917 Password
Abstract oil painting 1 - 5 UHQ JPEG
Abstract oil painting 1 - 5 UHQ JPEG 5 UHQ JPEG | 5760X3840 | 300 DPI | 28 MB
Juice and Fresh UHQ JPG
Juice and Fresh UHQ JPG 10 UHQ JPG | up to 8000x5323 Pixels | 102 Mb
Girl in abstraction - 6 UHQ JPEG
Girl in abstraction - 6 UHQ JPEG 6 UHQ JPEG | 5915X4212 | 300 DPI | 60 MB
Flyer Psd Template - Farmer Flyer Business
Flyer Psd Template - Farmer Flyer Business PSD | 1275x1875 PIX | fontinfo |

Download Torrents. Fast and Free Torrent Downloads.

Not Store Any File In Server. The Links Are Provided Solely By This Site's Users.

If You Have Any Doubts About Legality Of Content, Feel Free To Contact US.
© 2015 - 2016